Main - andrei.krutsko.com / Blog / Forum / Про самое главное и часто спрашиваемое / Поддержать проект
Авто, Гаджеты, Видеорегистраторы
by andrei@krutsko.com

Продолжаем проход по горячим новинкам сезона 2016. У нас уже были:

1. Anytek A3
и
2. Xiaomi Yi Car


Ну и вот наконец-то доплыл через меня, как это принято писать "из магазина в РФ", топ-хот регистратор - Shadow1s.
Заказывал я его не через геарбест (у меня с ними плохой опыт). Пришлось немного переплатить, но зато пришел очень быстро.






Технические данные:

Сенсор: китайская украденная копия сенсора Sony IMX122: china clone Sony IMX322
Процессор: Ambarella A7
Стекла: F1.6, FOV=158

Из плюсов хочу отметить применение конденсатора вместо батарейки. Последняя на морозе вздувается и ВР перестает работать. Конденсатор наиболее живучее и надежное решение.
Так же не могу не пропустить наличие процессора амбарелла, на который есть уже полнейшая пошаговая инструкция как менять прошивки самому. Написан даже [App] AFT 1.3.x - Ambarella firmware editor
C помощью утилитки (спасибо энтузиатам) не надо самостоятельно высчитывать хэши и контрольные суммы, не надо самостоятельно искать смещения и распыковавыть блоки и модули прошивки.
Можно попытаться что-то изменить в програмной реализации и это тоже существенный плюс.




Форм фактор:

Регистратор идет по пути Street Guardian SG9665GC.
Предлагается очень компактное и миниатюрное решение. В таком форм-факторе нет поворотных кронштейнов, страдающих тряской. Регистратор клеится на 3М скотч на шелкографию, неотличим от штатного оборудования многих машин, и реально максимально незаметен. Правда, по слову "компактность" я погорячился. Он хоть и очень похож на стритгардиан, но он огромен, не даже так - ОН ЗДОРОВЫЙ. Больше раза в полтора точно.







В машине он и в самом деле прячется хорошо. Все важные разьемы и слот карты сбоку, так что можно смело клеить под самый потолок.









По первому впечатлению выглядит неплохо. Но! вылез сразу один минус - линза хоть и имеет регулировку вверх/вниз, но диапазон очень маленький, а на машине типа "гелика" или УАЗа, с почти вертикальным лобовым слеклом, регистратор будет снимать панель и приборку.
Аналогично ВР будет смотреть в пол и не подойдет автобусным мстителям и водителям камазов (хотя зачем он последним).
Но с 90% легковых авто проблем, уверен, не будет.





Перейдем к движению и оценим что же Shadow1s умеет днем.
Изначально меня очень насторожил угол обзора в 158гр.
Это даже на бумаге плохо и неприлично много.
Проверим в реальных гороских условиях. На сколкьо это плохо и плохо ли на самом деле.


День



https://youtu.be/zZoSRMZLJC0


Традиционно стопкадры самых важных мест:


















По динамическому диапазону я разочарован.
Не тот случай когда можно кивать на плохую работу экспозамера.
Шадоу провалил как темные области, так и светлые.



Странно. В предыдущем тесте Тест ВР: Anytek A3, Анитек на таком сони-сенсоре просто "божил" своим динамическим диапазон на фоне и DP220 и Панорамы.
А с шадоу явно что-то не так.


Ну и главное - проблемы пере-широкого угла.
Физику снова обмануть не удалось: чем шире угол, тем ниже детализация.



Даже нечего комментировать.
Панорама никогда не блистала высокой честкостью и детализацией, но в данном случае даже она лучше.
Снова вспоминаю предыдущий тест Тест ВР: Anytek A3, где только за счет правильно подобронной линзы и хорошего угла обзора читаемость и детализация была просто образцовой!





Но у нас же типа китайский Sony IMX322, да это клон оригинала, но быть может ночью он возьмет свое. Давайте посмотрим:


Ночь



https://youtu.be/0PeEHxYZZtA


Стопкадры:
















С одной стороны чуда не произошло. И все мои последние тесты показывают примерно такую же картинку.
Я бы не сказал что она существенно отличается от того что давали Anytek A3 или Street Guardian SG9665GC можеть и чуть лучше но очень рядом. До своих более старых соперников (ДП220 и панорама2) все они не дотягивают.







Но у нас же в Shadow1s!
Заявлено, что ночью он якобы должен уметь переходить в грейскэйл и показывать какие-то рекордные люксы чувствительности при плохом освещении.
Сами видите выше - не работает. Картинка точно такая же!


Я пошел дальше и проверил Shadow c просотой IP камерой.

Камеры, которые висят у меня по периметру дома: Vacron VIG-US731VE.
Собрана на еще оригинальном сенсоре IMX122.
Она на самом деле умеет пользоваться возможностью сенсора на 100% и действительно при переходе в grayscale сильно выигрывает в чувствительности. У нее и в самом деле работает night-vision mode.

Вот что получилось:


https://youtu.be/0-4iBOXM7ww


Хочу сразу отметить что у Vacron IR-cut filter включается/убирается с небольшой задержкой. Поэтому ИК-подсветка IP-камеры на видео срабатывает в разное время, на самом деле все синхронно, но разные логики переключения шторок под обьективом.

Ну а по результату я могу сказать толкьо одно - night mode у видеорегистратора Shadow1s это фэйк.
Перевод в GS-mode это не более чем маркетинговый трюк и простое обесцвечивание картинки. (de-saturation)
Анитек ночью снимает точно так же. IP-камера с рельным ночным режимом снимает лучше просто на голову.



GPS

Из преимуществ и главных отличий Шадоу1с от Анитек А3 я могу назвать наличие GPS, причем встроенного.
Но и тут было не все гладно. Он плохо ловил и часто терял спутники:



При этом ни трансценд ни панорама, висящие рядом таких фокусов не выкидывали.




Битрейт


General
Format : MPEG-4
Format profile : JVT
Codec ID : avc1 (avc1/isom)
Overall bit rate mode : Constant
Overall bit rate : 16.2 Mbps
AMBA : 

Video
ID : 1
Format : AVC
Format/Info : Advanced Video Codec
Format profile : Main@L4
Format settings, CABAC : Yes
Format settings, ReFrames : 2 frames
Format settings, GOP : M=3, N=15
Codec ID : avc1
Codec ID/Info : Advanced Video Coding
Duration : 5mn 0s
Bit rate mode : Constant
Bit rate : 16.0 Mbps
Width : 1 920 pixels
Height : 1 080 pixels
Display aspect ratio : 16:9
Frame rate mode : Constant
Frame rate : 29.970 (30000/1001) fps
Color space : YUV
Chroma subsampling : 4:2:0
Bit depth : 8 bits
Scan type : Progressive
Bits/(Pixel*Frame) : 0.257
Stream size : 572 MiB (99%)
Title : Ambarella AVC
Language : English
Color range : Full

Audio
ID : 2
Format : AAC
Format/Info : Advanced Audio Codec
Format profile : LC
Codec ID : 40
Bit rate mode : Constant
Bit rate : 64.0 Kbps
Nominal bit rate : 128 Kbps
Channel(s) : 1 channel
Channel positions : Front: C
Sampling rate : 48.0 KHz
Frame rate : 46.875 fps (1024 spf)
Compression mode : Lossy
Stream size : 2.29 MiB (0%)
Title : Ambarella AAC
Language : English

Text
ID : 3
Format : Timed Text
Codec ID : text
Bit rate mode : Constant
Bit rate : 10.8 Kbps
Stream size : 396 KiB (0%)
Title : Ambarella EXT
Language : English
Forced : No


16Мбпс - достаточно из коробки. Но тут надо помнить что это Амбарелла А7 и битрейт можно сделать любой в два клика.





Выводы


Двоякое впечатление оставил регистратор. С одной стороны все в одном, встроенный GPS, отличный корпус/формфактор, низкая заметность. Но Слишком широкая линза, плохая детализация днем.
Ночью (на фоне мусорных ВР как TrendVision TDR-718GP) на самом деле не плохо, на одном уровне с Anytek A3 и близко к Street Guardian SG9665GC.
Но есть осадочек от того обмана, с ночным режимом, которого по факту просто нет, он обычный.

Купил бы я его? Если нужен GPS - однозачно купил, но сразу бы держал в уме что линзу надо менять. Если же GPS не критичен, я бы выбрал Anytek A3.



Полный обзор в видеоформате:


https://youtu.be/gYRBZhU_wZ0

Monday, July 11, 2016, 13:41
  |  
( 4.5 / 2 )


Back Next

1999-2020 © krt